Help - Search - Members - Calendar
Full Version: Boris - Urban Dance (2015)
Metal Area - Extreme Music Portal > Releases Area / Релизы > Archive
necroscum


*Artist: Boris
*Album: Urban Dance
*Year: 2015
*Genre: Experimental Sludge/Drone/Doom Metal/Noise
*Country: Japan
*Format: mp3@CBR320kbps
*Size: 88MB

Tracklist:
01. Un, Deux, Trois 04:30
02. Surrender 07:44
03. Choreographer 08:45
04. Endless 09:43
05. Game Of Death 11:18
******************************
Total playing time: 42:00




Technical info

Input File: 02. Surrender.mp3
Channels : 2
Sample Rate : 44100
Precision : 16-bit
Duration : 00:07:44.85 = 20499797 samples = 34863.6 CDDA sectors
File Size : 18.6M
Bit Rate : 320k
Sample Encoding: MPEG audio (layer I, II or III)
Comments :
Title=surrender
Artist=BORIS
Album=urban dance
Tracknumber=2/5
Year=2015
Genre=17
Discnumber=1/1



[ Hidden Text ]
Варонъ
Только вчера удалил предыдущий новый альбом 1488.gif
necroscum
Также есть альбом Warpath (CBR-320):
[ Hidden Text ]
DarkHorde
Смотрю, Борька. Думаю опять паренька туда-сюда по разделам таскают, да на "хЭ" называют. Присмотрелся, а это другой релиз оказывается. 1488.gif
Leolomb
fuck! just one song on this one??!!! come on Boris stop making shitty noises and write real songs!
aesteticvice
ЦИТАТА(DarkHorde @ May 21 2015, 13:29:57) *
Смотрю, Борька. Думаю опять паренька туда-сюда по разделам таскают, да на "хЭ" называют. Присмотрелся, а это другой релиз оказывается. 1488.gif

это серия нойзовых альбомов, какой нехороший человек запихнул их в формат надо разобраться, скрипы и скрежет расчески без вокала и музыки в формат? повинен смерти 1488.gif
мне вот интересно, те кто скачал все три альбома в восторге? чета отзывов нет насчет покупки винила, или я подозреваю элита высокомерно молчит тихо скупая тиражи дабы успеть пока не разобрали headcrab.png
This is a "lo-fi" version of our main content. To view the full version with more information, formatting and images, please click here.
Invision Power Board © 2001-2020 Invision Power Services, Inc.