Help - Search - Members - Calendar
Full Version: Desangre - Solo Carniceria (2008)
Metal Area - Extreme Music Portal > Releases Area / Релизы > Archive
Lion


*Artist: Desangre
*Album: Solo Carniceria
*Year: 2008
*Genre: Death Metal
*Country: Mexico
*Format: mp3@CBR320kbps
*Size: 125MB

Tracklist:
1. Se Los Carga La Chingada
2. Masacre Sin Razon
3. Solo Carniceria
4. Nuestra Propia Mierda
5. Porfirio
6. Machacahuevos
7. Destripador
8. Los Ojos Del Asesino
9. Putrido
10. JD
11. Enfermos De Poder
12. Zorra Santurrona
13. Violando Mujeres Muertas
14. Deskisiada
15. Falsa Ideologia
16. Realidades Paralelas
17. Sigue A Betonas
18. Maldito Agujero
******************************
Total playing time: 54:52

Technical info

Input File: Desangre (Mex) - Solo Carniceria - 01 - Se Los Carga La Chingada-DRAV.mp3
Channels : 2
Sample Rate : 44100
Precision : 16-bit
Duration : 00:01:30.78 = 4003310 samples = 6808.35 CDDA sectors
File Size : 3.63M
Bit Rate : 320k
Sample Encoding: MPEG audio (layer I, II or III)
Comments :
Title=Se Los Carga La Chingada
Artist=Desangre
Album=Solo Carniceria
Tracknumber=1/24
Year=2008
Genre=Death Metal



[ Hidden Text ]
AHBAnep

Простенько, но жирненько.
cesar
Вот такое мне по душе!!
Просто, грязно и немного замахивает в грайнд.

ПС/ А как восхитительно звучит рабочий барабан 20.gif
BemoaningSign
plz re upload thanks!
Герб
[ Hidden Text ]
This is a "lo-fi" version of our main content. To view the full version with more information, formatting and images, please click here.
Invision Power Board © 2001-2020 Invision Power Services, Inc.