Help - Search - Members - Calendar
Full Version: Magna Umbra - Someone At Your Door (2015)
Metal Area - Extreme Music Portal > Releases Area / Релизы > Archive
necroscum


*Artist: Magna Umbra
*Album: Someone At Your Door
*Year: 2015
*Genre: Symphonic Metal
*Country: Brazil
*Format: mp3@VBR237kbps
*Size: 83MB

Tracklist:
01. I Am My Own God 04:48
02. Dolce Ardor 03:04
03. About Stars 05:34
04. Hark Manat 05:44
05. Is Over 04:01
06. Abysso 02:30
07. Insane 05:14
08. Force To Face 04:23
09. Beyond Forever 06:46
10. Someone At Your Door 04:22
******************************
Total playing time: 46:26




Extended info

Input File: 09 - Beyond Forever.mp3
Channels : 2
Sample Rate : 44100
Precision : 16-bit
Duration : 00:06:46.73 = 17936617 samples = 30504.5 CDDA sectors
File Size : 12.6M
Bit Rate : 248k
Sample Encoding: MPEG audio (layer I, II or III)
Comments :
Title=Beyond Forever
Artist=Magna Umbra
Album=Someone at your door
Tracknumber=9
Year=2015
Genre=Metal


[ Hidden Text ]
RotAnus
320 [ Hidden Text ]
This is a "lo-fi" version of our main content. To view the full version with more information, formatting and images, please click here.
Invision Power Board © 2001-2020 Invision Power Services, Inc.