Help - Search - Members - Calendar
Full Version: Teramaze - Her Halo (2015)
Metal Area - Extreme Music Portal > Releases Area / Релизы > Archive > Low Bitrate Archive (read only)
Lion


*Artist: Teramaze
*Album: Her Halo
*Year: 2015
*Genre: Progressive Metal
*Country: Australia
*Format: mp3@CBR320kbps
*Size: 130MB

Tracklist:
1. An Ordinary Dream (Enla Momento)
2. To Love, A Tyrant
3. Her Halo
4. Out Of Subconscious
5. For The Innocent
6. Trapeze
7. Broken
8. Delusions Of Grandeur
******************************
Total playing time: 56:33



Technical info

Input File: 02. To Love, A Tyrant.mp3
Channels : 2
Sample Rate : 44100
Precision : 16-bit
Duration : 00:07:54.69 = 20933917 samples = 35601.9 CDDA sectors
File Size : 19.1M
Bit Rate : 321k
Sample Encoding: MPEG audio (layer I, II or III)
Comments :
Title=To Love, A Tyrant
Artist=Teramaze
Album=Her Halo
Tracknumber=2/8
Year=2015
Genre=Progressive Metal



[ Hidden Text ]

 ! 

Транскод
 
zauber1
А где обсуждение? Явно ведь не проходной релиз.
Shadowman
Исполнение на уровне, но в целом как-то слишком эмтивишно и молодежно.
Yarri
zauber1,
С первого прогона - годно. Но слишком они стали Modern. Надо ещё слушать.
DenisKov
Разачаровали, в целом все то же что и было раньше, но в этот раз что то не хитово как то вышло, прослушал раз 5-6 и надоело.
aesteticvice
к томуж транскод вебрипный, автор слива так и написал в источнике bye.gif
Lion
ЦИТАТА(aesteticvice @ Oct 26 2015, 19:41:53) *
к томуж транскод вебрипный, автор слива так и написал в источнике bye.gif

Олежа не ной , знаток ты наш ,вот vbr какачество если в шапке не подходит:
[ Hidden Text ]
This is a "lo-fi" version of our main content. To view the full version with more information, formatting and images, please click here.
Invision Power Board © 2001-2019 Invision Power Services, Inc.