Help - Search - Members - Calendar
Full Version: Hevilan - The End Of Time (2013)
Metal Area - Extreme Music Portal > Releases Area / Релизы > Archive
necroscum


*Artist: Hevilan
*Album: The End Of Time
*Year: 2013
*Genre: Progressive Power/Thrash Metal
*Country: Brazil
*Format: mp3@CBR320kbps
*Size: 180MB

Tracklist:
01. Regenesis 04:02
02. Shades Of War 05:12
03. Minus Is Call 05:37
04. End Of Time 05:46
05. Desire Of Destruction 03:21
06. Sanctum Imperium 04:53
07. Dark Throne Of Babylon 03:56
08. Son Of Messiah 06:14
09. Loneliness 06:50
10. Shades Of War (Extended Version Feat. Warrel Dane) (Bonus Track) 06:06
11. Quest Of Illusion 2014 (Bonus Track) 06:07
******************************
Total playing time: 58:04





Extended info
CD-rip with scans


Technical info

Input File: 02. Shades Of War.mp3
Channels : 2
Sample Rate : 44100
Precision : 16-bit
Duration : 00:05:12.59 = 13785087 samples = 23444 CDDA sectors
File Size : 12.5M
Bit Rate : 320k
Sample Encoding: MPEG audio (layer I, II or III)
Comments :
Title=Shades Of War
Artist=Hevilan
Album=The End Of Time
Tracknumber=2
Year=2015



[ Hidden Text ]
DenisKov


Без откровений, но все прилежно.
Lion
[ Hidden Text ]
Ulfhethnaar
135 mb/320 кб/с
[ Hidden Text ]
Ingvar
136 mb/320 kbps
[ Hidden Text ]
This is a "lo-fi" version of our main content. To view the full version with more information, formatting and images, please click here.
Invision Power Board © 2001-2019 Invision Power Services, Inc.