Help - Search - Members - Calendar
Full Version: The Meads Of Asphodel - All Things Bright & Shit [single] (2015)
Metal Area - Extreme Music Portal > Releases Area / Релизы > Archive
aesteticvice


*Artist: The Meads Of Asphodel
*Album: All Things Bright & Shit [single]
*Year: 2015
*Genre: Avant-Garde Black Metal
*Country: United Kingdom
*Format: mp3@CBR320kbps
*Size: 28MB

Tracklist:
1. All Things Bright & Shit 06:00
2. The Song of a Hundred Roars 04:51
******************************
Total playing time: 10:51




Extended info
All Things Bright & Shit, first appeared on the Terrorizer covermount cd in December 2006.
And The Song of a Hundred Roars first appeared on the Terrorizer cd of December 2009
Many thanks to Metatron for agreeing to the release of this unholy single


Technical info

Input File: 02 The Song of a Hundred Roars.mp3
Channels : 2
Sample Rate : 44100
Precision : 16-bit
Duration : 00:04:51.84 = 12870320 samples = 21888.3 CDDA sectors
File Size : 11.8M
Bit Rate : 323k
Sample Encoding: MPEG audio (layer I, II or III)
Comments :
Title=The Song of a Hundred Roars
Artist=The Meads Of Asphodel
Album=All Things Bright & Shit
Tracknumber=2
Year=2015



[ Hidden Text ]
Slavas
Please re-up
This is a "lo-fi" version of our main content. To view the full version with more information, formatting and images, please click here.
Invision Power Board © 2001-2020 Invision Power Services, Inc.