Help - Search - Members - Calendar
Full Version: Fury UK - VR (2009)
Metal Area - Extreme Music Portal > Releases Area / Релизы > Archive
Lion


*Artist: Fury UK
*Album: VR
*Year: 2009
*Genre: Heavy Metal
*Country: United Kingdom
*Format: mp3@CBR320kbps
*Size: 109MB

Tracklist:
1. VR
2. Game Over
3. The Hostage
4. Playing Whit Violence
5. Outpost
6. The Human Condition
7. Brotherhood
8. The Last Invention
9. Call To Arms
10. Death By Lightning
******************************
Total playing time: 49:43

Technical info

Input File: 02. Game Over.mp3
Channels : 2
Sample Rate : 44100
Precision : 16-bit
Duration : 00:04:39.91 = 12343855 samples = 20993 CDDA sectors
File Size : 11.2M
Bit Rate : 320k
Sample Encoding: MPEG audio (layer I, II or III)
Comments :
Title=Game Over
Artist=Fury UK
Album=VR
Tracknumber=2
Year=2011
Genre=Hard-n-Heavy



[ Hidden Text ]
zauber1
Sethan
[ Hidden Text ]
This is a "lo-fi" version of our main content. To view the full version with more information, formatting and images, please click here.
Invision Power Board © 2001-2020 Invision Power Services, Inc.