Help - Search - Members - Calendar
Full Version: Invunche - Invunche [demo] (2014)
Metal Area - Extreme Music Portal > Releases Area / Релизы > Archive
NachtWulf


*Artist: Invunche
*Album: Invunche [demo]
*Year: 2014
*Genre: Raw Black Metal/Punk
*Country: Netherlands
*Format: mp3@CBR320kbps
*Size: 59MB

Tracklist:
01. El Ciclo
02. Estructuras Primarias
03. Paso
04. La Trampa Sagrada I
05. El Invunche
06. No Queda Nada
07. Camino Sin Fin
08. La Trampa Sagrada II
******************************
Total playing time: 19:39

Extended info
Limited to 50 hand-numbered copies.


Technical info

Input File: 07 - Camino Sin Fin.mp3
Channels : 2
Sample Rate : 44100
Precision : 16-bit
Duration : 00:01:31.68 = 4042912 samples = 6875.7 CDDA sectors
File Size : 5.69M
Bit Rate : 497k
Sample Encoding: MPEG audio (layer I, II or III)
Comments :
Title=Camino Sin Fin
Artist=Invunche
Album=Invunche
Tracknumber=07
Year=2014
Genre=Black Metal/Punk



[ Hidden Text ]
satanist666
templ
чего всегда не хватало практически всем последышам ildjarn - так это специфической, тяжелой как валун и мрачной как топь психоделии.
разве что bone awl на некоторых демках удавалось изобразить что-то такое с понтом дурманящее, но не особо убедительно.
а тут с этим настолько все в порядке, что прям оторопь берет. рискну заявить, что батька видар мог бы и сам чему-нибудь научиться у этого шамана. под последнюю вещь я просто проваливаюсь куда-то в сумрачный край нечеловечьего забытья и хищных блужданий.
Cosmic_Sorcerer
ЦИТАТА(templ @ Jan 14 2020, 22:13:03) *
чего всегда не хватало практически всем последышам ildjarn - так это специфической, тяжелой как валун и мрачной как топь психоделии.
разве что bone awl на некоторых демках удавалось изобразить что-то такое с понтом дурманящее, но не особо убедительно.
а тут с этим настолько все в порядке, что прям оторопь берет. рискну заявить, что батька видар мог бы и сам чему-нибудь научиться у этого шамана. под последнюю вещь я просто проваливаюсь куда-то в сумрачный край нечеловечьего забытья и хищных блужданий.


После такой рецензии прям захотелось ознакомится с данной демкой. Благодарствую за наводку, материал действительно в тотальном воршипе Ildjarn и даже больше 9.gif
This is a "lo-fi" version of our main content. To view the full version with more information, formatting and images, please click here.
Invision Power Board © 2001-2020 Invision Power Services, Inc.