Help - Search - Members - Calendar
Full Version: Spell Forest - Candelarum [ep] (2015)
Metal Area - Extreme Music Portal > Releases Area / Релизы > Archive
Velmi


*Artist: Spell Forest
*Album: Candelarum [ep]
*Year: 2015
*Genre: Black Metal
*Country: Brazil
*Format: mp3@CBR320kbps
*Size: 38MB

Tracklist:
1. Candelarum 04:55
2. Rebellionis 03:43
3. Hoc Est Corpus Meus 03:41
4. Viva Satanas 03:29
******************************
Total playing time: 15:48

Extended info
!!!KVLT!!!
!FVK OFF!
!!!!DIE!!!!


Technical info

Input File: 01. Candelarum.mp3
Channels : 2
Sample Rate : 44100
Precision : 16-bit
Duration : 00:04:55.27 = 13021231 samples = 22145 CDDA sectors
File Size : 12.0M
Bit Rate : 325k
Sample Encoding: MPEG audio (layer I, II or III)
Comments :
Title=Candelarum
Artist=Spell Forest
Album=Candelarum
Tracknumber=01/04
Year=2015
Genre=Black Metal



[ Hidden Text ]
Ostinato
Thank you for sharing, but the extended info....seriously?
SlaveToMetal
Yeah...was that really necessary?

It's the kind of shit that gives metalheads a bad rep.
varlam4
[ Hidden Text ] 320
This is a "lo-fi" version of our main content. To view the full version with more information, formatting and images, please click here.
Invision Power Board © 2001-2020 Invision Power Services, Inc.