Help - Search - Members - Calendar
Full Version: Solinaris - Deranged (2016)
Metal Area - Extreme Music Portal > Releases Area / Релизы > Archive > Low Bitrate Archive (read only)
Samaritianin


*Artist: Solinaris
*Album: Deranged
*Year: 2016
*Genre: Avant-garde/Technical Progressive Death Metal
*Country: Canada
*Format: mp3@CBR320kbps
*Size: 86MB

Tracklist:
1. Intro
2. Deranged
3. Torture Chronicles
4. Blind
5. Murder
6. Chloroform
7. Field Of Trees
8. November
9. Phobopath
10. Red Rain
******************************
Total playing time: 49:40



Extended info
В Лоуbitrait 192/320 kpbs


Technical info

Input File: 03 - Torture Chronicles.mp3
Channels : 2
Sample Rate : 44100
Precision : 16-bit
Duration : 00:04:10.50 = 11046874 samples = 18787.2 CDDA sectors
File Size : 6.14M
Bit Rate : 196k
Sample Encoding: MPEG audio (layer I, II or III)
Comments :
Title=Torture Chronicles
Artist=Solinaris
Album=Deranged
Tracknumber=3
Year=2016
Genre=Death Metal



[ Hidden Text ]
ddx1
А чё тут думать, вон какой бас красивый. Звучок чистый, с мелодиями потом разбираться будем.
x_redwhite
Такой вкусный шоколадный торт, не хватает только вафельной прослойки в виде хорошего качества, ну чо, подождем.
This is a "lo-fi" version of our main content. To view the full version with more information, formatting and images, please click here.
Invision Power Board © 2001-2019 Invision Power Services, Inc.