Help - Search - Members - Calendar
Full Version: Phantom Glue - 776 (2016)
Metal Area - Extreme Music Portal > Releases Area / Релизы > Archive
aesteticvice


*Artist: Phantom Glue
*Album: 776
*Year: 2016
*Genre: Psychedelic Sludge
*Country: United States
*Format: mp3@CBR320kbps
*Size: 86MB

Tracklist:
1. Ion Cloud 03:24
2. Hundred Hand 03:56
3. Somatic 05:13
4. A Worker-less Mill 05:14
5. Suttungr 07:13
6. Hocheims War 04:56
7. Gog Is Dead 06:09
******************************
Total playing time: 36:05




Extended info
ЖЖЖырненько плющат психоделом


Technical info

Input File: 01 Ion Cloud.mp3
Channels : 2
Sample Rate : 44100
Precision : 16-bit
Duration : 00:03:23.70 = 8983082 samples = 15277.4 CDDA sectors
File Size : 8.15M
Bit Rate : 320k
Sample Encoding: MPEG audio (layer I, II or III)
Comments :
Title=Ion Cloud
Artist=Phantom Glue
Album=776
Tracknumber=1/7
Year=2016



[ Hidden Text ]
aesteticvice
зеркало
[ Hidden Text ]
denver
на бэндкэмп бесплатно лежит всё
This is a "lo-fi" version of our main content. To view the full version with more information, formatting and images, please click here.
Invision Power Board © 2001-2020 Invision Power Services, Inc.