Help - Search - Members - Calendar
Full Version: The Malice - Malevolent Creature Of Kings [ep] (2016)
Metal Area - Extreme Music Portal > Releases Area / Релизы > Archive
Samaritianin


*Artist: The Malice
*Album: Malevolent Creature Of Kings [ep]
*Year: 2016
*Genre: Death Metal
*Country: Unknown
*Format: mp3@CBR320kbps
*Size: 32MB

Tracklist:
1. Nâmtaru 03:35
2. Malevolent Creature of Kings 03:31
3. The False Throne of Glory 03:27
4. Abusing the Virgin of Kadi 03:08
******************************
Total playing time: 13:41





Extended info
This band International: Germany / Sweden


Technical info

Input File: 02 - Malevolent Creature of Kings.mp3
Channels : 2
Sample Rate : 44100
Precision : 16-bit
Duration : 00:03:31.78 = 9339278 samples = 15883.1 CDDA sectors
File Size : 8.47M
Bit Rate : 320k
Sample Encoding: MPEG audio (layer I, II or III)
Comments :
Title=Malevolent Creature of Kings
Artist=The Malice
Album=Malevolent Creature Of Kings
Tracknumber=2
Year=2016
Genre=Death Metal



[ Hidden Text ]
magikart
Country: Sweden
magikart
Бэнд хороший, но только было бы хорошо взять за правило и заливать вместе с русфолдером и на яндекс или на медиафайр, на пример
Lucifer1366613
Перезалейте, пожалуйста, люди добрые! pray.gif
satanist666
Залито на Мыло - 32.2Mb в 320kbps!!!:
[ Hidden Text ]
metaler.gif
This is a "lo-fi" version of our main content. To view the full version with more information, formatting and images, please click here.
Invision Power Board © 2001-2020 Invision Power Services, Inc.