Help - Search - Members - Calendar
Full Version: Castle - Welcome To The Graveyard (2016)
Metal Area - Extreme Music Portal > Releases Area / Релизы > Archive > Low Bitrate Archive (read only)
RUDACHUR


*Artist: Castle
*Album: Welcome To The Graveyard
*Year: 2016
*Genre: Heavy/Doom Metal/Occult Rock
*Country: United States
*Format: mp3@CBR320kbps
*Size: 78MB

Tracklist:
1. Black Widow 04:07
2. Hammer And The Cross 04:42
3. Welcome To The Graveyard 04:06
4. Veil Of Death 05:12
5. Flash Of The Pentagram 03:12
6. Traitors Rune 04:04
7. Down In The Cauldron Bog 04:51
8. Natural Parallel 04:35
******************************
Total playing time: 34:49




Preview 4

Extended info


Technical info

Input File: 04 - Veil of death.mp3
Channels : 2
Sample Rate : 44100
Precision : 16-bit
Duration : 00:05:12.77 = 13793157 samples = 23457.8 CDDA sectors
File Size : 12.5M
Bit Rate : 320k
Sample Encoding: MPEG audio (layer I, II or III)
Comments :
Title=Veil of death
Artist=Castle
Album=Welcome to the Graveyard
Tracknumber=04
Year=2016
Genre=Heavy / Doom Metal



[ Hidden Text ]
Tular
Не понравилась алкоголичка на вокале, но альбом, наверное, послушаю.
SAPOGi
Любят оккультщики свои мятые рожи на обложки лепить crazy.gif
Lord_Djaspam
они превзошли себя, все ждал от них именно такого альбома metaler.gif
This is a "lo-fi" version of our main content. To view the full version with more information, formatting and images, please click here.
Invision Power Board © 2001-2019 Invision Power Services, Inc.