Help - Search - Members - Calendar
Full Version: Armath Sargon - Northern Chronicles Of Worship: Autumn & Winter (2016)
Metal Area - Extreme Music Portal > Releases Area / Релизы > Archive
necroscum


*Artist: Armath Sargon
*Album: Northern Chronicles Of Worship: Autumn & Winter
*Year: 2016
*Genre: 'Black' Metal
*Country: Finland
*Format: mp3@CBR320kbps
*Size: 309MB

Tracklist:
01. And Leaves Fall to the Ground 07:30
02. The Mist that Summons Souls 06:12
03. Autumn 07:47
04. As the Sun Fades Behind the Horizon 07:28
05. From the Shadows 06:30
06. The Solstice Hastening 06:05
07. Perfection (Far Beyond Dreams) 05:08
08. Left Behind (Perfection Complete) 07:05
09. The God of Love 10:52
10. Kivinen Tie 01:09
11. Fading Autumn Days 05:16
12. Winter in the Forest of the North 00:48
13. Son of the North 06:00
14. Winter 04:42
15. Snow Covers All 05:50
16. Tears of the Son 06:31
17. Northern Lands of Frost Flowers 08:07
18. As Dakrness Falls on the Earth 05:44
19. The Bible 05:17
20. Cold Steel 05:39
21. Dear Father 06:39
22. Babylon in Ice 07:05
******************************
Total playing time: 2:13:24






Extended info
Lyrical themes: Christianity, God


Technical info

Input File: 02. The Mist That Summons Souls.mp3
Channels : 2
Sample Rate : 44100
Precision : 16-bit
Duration : 00:06:12.99 = 16448771 samples = 27974.1 CDDA sectors
File Size : 15.1M
Bit Rate : 324k
Sample Encoding: MPEG audio (layer I, II or III)
Comments :
Title=The Mist That Summons Souls
Artist=Armath Sargon
Album=Northern Chronicles Of Worship: Autumn & Winter
Tracknumber=02/11
Year=2016
Discnumber=1



[ Hidden Text ]
ddarkthrone
22.gif Christianity 21.gif
avather
ЦИТАТА(ddarkthrone @ Aug 22 2016, 22:54:34) *
22.gif Christianity 21.gif

Материал акуенен, а ты абасрись, 265
Hell_Is_Here
Тут "акуенно" всё - и "лирика" и "видео". crazy.gif crazy.gif crazy.gif
This is a "lo-fi" version of our main content. To view the full version with more information, formatting and images, please click here.
Invision Power Board © 2001-2019 Invision Power Services, Inc.