Help - Search - Members - Calendar
Full Version: High Spirits - Motivator (2016)
Metal Area - Extreme Music Portal > Releases Area / Релизы > Archive
metadeat


*Artist: High Spirits
*Album: Motivator
*Year: 2016
*Genre: Traditional Heavy Metal
*Country: United States
*Format: mp3@CBR320kbps
*Size: 67MB

Tracklist:
1. Up and Overture 00:38
2. Flying High 03:19
3. This Is the Night 02:34
4. Reach for the Glory 04:16
5. Do You Wanna Be Famous 04:13
6. Haunted by Love 03:48
7. Down the Endless Road 03:30
8. Take Me Home 03:37
9. Thank You 03:32
******************************
Total playing time: 29:27




Extended info


Technical info

Input File: 02-Flying High.mp3
Channels : 2
Sample Rate : 44100
Precision : 16-bit
Duration : 00:03:17.91 = 8727655 samples = 14843 CDDA sectors
File Size : 7.92M
Bit Rate : 320k
Sample Encoding: MPEG audio (layer I, II or III)
Comments :
Title=Flying High
Artist=High Spirits
Album=Motivator
Tracknumber=02
Year=2016
Genre=Heavy Metal



[ Hidden Text ]
Olrak
Голосят прямо как Хипы! smile4.gif
Quacksha
Раз 10 уже прогнал. Просто шик! Прям пособие на тему "Как сделать правильный ретро альбом". 20.gif
Yarri
Душевно.
Quacksha
Надо бы ещё заметить, что Крис Блэк, помимо сабжевой группы-проекта, тащит на себе и Dawnbringer. А ещё барабанит (попутно сочиняя им большинство песен) в славном ВИА Pharaoh .
SAPOGi
ЦИТАТА(Quacksha @ Sep 29 2016, 17:00:59) *
А ещё барабанит (попутно сочиняя им большинство песен) в славном ВИА Pharaoh .


Да, за одну The Year of the Blizzard уже можно памятник ставить.
zauber1
Это даже не тухляк, а эрзац. Никогда не понимал, ни зачем это кто-то делает, ни зачем подобное кто-то слушает.
vosmidesijatye
При всей моей огромнейшей любви к олдскулу, этот релиз абсолютно не зацепил. Слишком упрощенчески, я бы сказал, нехитово и пусто-банально.
technoboy69
Не знаю, кого как, но меня на этом релизе просто убил его низкий уровень громкости. Тот редкий (точнее, единственный у меня на данный момент) случай, когда, слушая альбом в наушниках в постели перед сном, пришлось ставить максимальную громкость. Боюсь, что в уличных условиях он и вовсе будет заглушен обилием окружающих звуков.
Ingvar
68 mb/320 kbps
[ Hidden Text ]
SAPOGi
почему нпа бэндкампе звук отличный, а в остальных доступных местах - полное дерьмо?. Как стянуть с бэндкампа?
vosmidesijatye
ЦИТАТА(SAPOGi @ Jan 13 2021, 19:47:31) *
Как стянуть с бэндкампа?


Если хош в кач-ве - то тока купить.

А так есть специальные проги для тыра музла с лагеря, но они все дают невысокий битрейт.
This is a "lo-fi" version of our main content. To view the full version with more information, formatting and images, please click here.
Invision Power Board © 2001-2021 Invision Power Services, Inc.