Help - Search - Members - Calendar
Full Version: Infinight - Fifteen [ep] (2016)
Metal Area - Extreme Music Portal > Releases Area / Релизы > Archive
necroscum


*Artist: Infinight
*Album: Fifteen [ep]
*Year: 2016
*Genre: Power/Thrash Metal
*Country: Germany
*Format: mp3@CBR320kbps
*Size: 46MB

Tracklist:
01. Goodbye II (This Cruel World) 05:10
02. Here To Conquer (Unplugged) 04:39
03. For The Crown 05:54
04. Through The Endless Night 05:43
******************************
Total playing time: 21:26






Technical info

Input File: 02-infinight-here_to_conquer_(unplugged)-c7593764.mp3
Channels : 2
Sample Rate : 44100
Precision : 16-bit
Duration : 00:04:39.98 = 12347250 samples = 20998.7 CDDA sectors
File Size : 11.4M
Bit Rate : 325k
Sample Encoding: MPEG audio (layer I, II or III)
Comments :
Title=Here to Conquer (Unplugged)
Artist=InfiNight
Album=Fifteen
Tracknumber=2/4
Year=2017
Genre=9



[ Hidden Text ]
Genuine Thrashiac
Наличие трэша здесь сомнительно.
diflock
Точнее Thrash metal тут совсем нет.
Yarri
Да, альбом в стилистике Американского павера, поэтому нотки трэша едва уловимы. Мне понравилось, кстати.
Andrew
ЦИТАТА(Genuine Thrashiac @ Jan 9 2017, 19:31:43) *
Наличие трэша здесь сомнительно.


100%! Трешем здесь и не пахнет вовсе!
BRUTAL06
качнул диско, спасибо:
2005 - Sea Of Knowledge
2011 - Like Puppets
2013 - The Vision (EP)
2015 - Apex Predator
2016 - Fifteen (EP)
varlam4
[ Hidden Text ] 320
This is a "lo-fi" version of our main content. To view the full version with more information, formatting and images, please click here.
Invision Power Board © 2001-2017 Invision Power Services, Inc.