Help - Search - Members - Calendar
Full Version: Obedient Chaos - New Era Of Chaos (2017)
Metal Area - Extreme Music Portal > Releases Area / Релизы > New Releases
necroscum


*Artist: Obedient Chaos
*Album: New Era Of Chaos
*Year: 2017
*Genre: Melodic Death Metal/Metalcore
*Country: Finland
*Format: mp3@CBR320kbps
*Size: 101MB

Tracklist:
01. No Tears
02. Sleepwalker
03. Enough
04. Demons Reign
05. Demons Still Reign
06. Beneath the Waves
07. Riddle of Three
08. Illusions of Reality
******************************
Total playing time: 37:23



Technical info

Input File: 02. Sleepwalker.mp3
Channels : 2
Sample Rate : 44100
Precision : 16-bit
Duration : 00:04:15.66 = 11274650 samples = 19174.6 CDDA sectors
File Size : 11.1M
Bit Rate : 346k
Sample Encoding: MPEG audio (layer I, II or III)
Comments :
Title=Sleepwalker
Artist=Obedient Chaos
Album=New Era of Chaos
Tracknumber=2/8
Year=2017



[ Hidden Text ]
DenisKov
Третьесорт, клубешники качать.
This is a "lo-fi" version of our main content. To view the full version with more information, formatting and images, please click here.
Invision Power Board © 2001-2017 Invision Power Services, Inc.