Help - Search - Members - Calendar
Full Version: Salduie - Belos (2016)
Metal Area - Extreme Music Portal > Releases Area / Релизы > Archive
necroscum


*Artist: Salduie
*Album: Belos
*Year: 2016
*Genre: Folk Metal
*Country: Spain
*Format: mp3@CBR320kbps
*Size: 115MB

Tracklist:
01. Pax Sempronia 179 a.C.
02. Carus de Sekaiza
03. Hospitium
04. Bestias númidas
05. El aullido de Vaélico
06. Bosnerau
07. Matres
08. Los fuegos de Belenus
09. Tvrma Sallvitana
10. Netón
11. Atland
******************************
Total playing time: 49:18



Technical info

Input File: 02. Carus de Sekaiza.mp3
Channels : 2
Sample Rate : 44100
Precision : 16-bit
Duration : 00:05:45.71 = 15245943 samples = 25928.5 CDDA sectors
File Size : 14.1M
Bit Rate : 326k
Sample Encoding: MPEG audio (layer I, II or III)
Comments :
Title=Carus de Sekaiza
Artist=Salduie
Album=Belos
Tracknumber=2
Year=2016
Genre=Folk Metal



[ Hidden Text ]
Ulfhethnaar
Альтернативная ссылка
[ Hidden Text ]
zauber1
avather
Хороший альбом, который почти не портит испаноязычный вокал
This is a "lo-fi" version of our main content. To view the full version with more information, formatting and images, please click here.
Invision Power Board © 2001-2017 Invision Power Services, Inc.