Help - Search - Members - Calendar
Full Version: Hellcraft - Apotheosis Of War (2017)
Metal Area - Extreme Music Portal > Releases Area / Релизы > Archive
necroscum


*Artist: Hellcraft
*Album: Apotheosis Of War
*Year: 2017
*Genre: Death Metal
*Country: Ukraine
*Format: mp3@CBR320kbps
*Size: 77MB

Tracklist:
01. Покаяние Сквозь Боль 04:33
02. Апофеоз Войны 04:44
03. Массовое Захоронение 04:16
04. Вечная Вражда 04:04
05. Под Благословением Смерти 04:34
06. Изоляция 04:17
07. Процесс Вырождения 03:35
08. Когда Погаснет Солнце 03:42
******************************
Total playing time: 33:45



Preview 3




Technical info

Input File: 03. Массовое Захоронение.mp3
Channels : 2
Sample Rate : 44100
Precision : 16-bit
Duration : 00:04:16.58 = 11315046 samples = 19243.3 CDDA sectors
File Size : 10.3M
Bit Rate : 320k
Sample Encoding: MPEG audio (layer I, II or III)
Comments :
Title=Массовое захоронение
Artist=Hellcraft
Album=Apotheosis Of War
Tracknumber=3
Year=2017
Genre=22



[ Hidden Text ]
Hell_Is_Here
[ Hidden Text ]
DarkHorde
Преимущественно среднетемповый музон, и мелодии есть не плохие и ходы, но абсолютно не цепляет.
This is a "lo-fi" version of our main content. To view the full version with more information, formatting and images, please click here.
Invision Power Board © 2001-2017 Invision Power Services, Inc.