Help - Search - Members - Calendar
Full Version: Necrocock - Houbařské Album (2016)
Metal Area - Extreme Music Portal > Releases Area / Релизы > New Releases
Gelukas


*Artist: Necrocock
*Album: Houbařské Album
*Year: 2016
*Genre: Dark/Doom Metal/Ambient
*Country: Czech Republic
*Format: mp3@VBR311kbps
*Size: 121MB

Tracklist:
1. Smotlacha 04:02
2. Pavučinec plyšový 03:59
3. Phallus impudicus 02:34
4. Houbový Tomáš 03:56
5. Do lesíčka 02:56
6. Nemocná 04:51
7. Klobouk 04:00
8. Otravy opojné 02:52
9. Hadovka smrdutá 04:08
10. Vrhavka 03:46
11. Boletus satanas 03:55
12. Slinotok 03:43
13. Noční houbaření 03:54
14. V houbových vodách 02:54
15. Vánoce v Hlavově ústavu 01:48 (instrumental)
******************************
Total playing time: 53:18

Bandzone

Technical info

Input File: 02-Pavu?inec ply?ov?.mp3
Channels : 2
Sample Rate : 44100
Precision : 16-bit
Duration : 00:03:59.28 = 10552292 samples = 17946.1 CDDA sectors
File Size : 9.56M
Bit Rate : 320k
Sample Encoding: MPEG audio (layer I, II or III)
Comments :
Artist=Necrocock
Album=HoubaЕ™skГ© Album
Year=2016
Genre=9



[ Hidden Text ]
Buregon
Наконец-то выложили, уже не надеялся.
Ну что ж, все в духе предыдущих по первой прослушке.
Дебютник и предпоследний всегда в плеере.
Обожаю его незамысловатую, но оригинальную музычку.
This is a "lo-fi" version of our main content. To view the full version with more information, formatting and images, please click here.
Invision Power Board © 2001-2017 Invision Power Services, Inc.