Help - Search - Members - Calendar
Full Version: Aske - Vuohi [demo] (2016)
Metal Area - Extreme Music Portal > Releases Area / Релизы > New Releases
Borderline1991


*Artist: Aske
*Album: Vuohi [demo]
*Year: 2016
*Genre: Black Metal
*Country: Finland
*Format: mp3@CBR320kbps
*Size: 34MB

Tracklist:
1. Intro (Prelude for the Death) 00:50
2. Horns 03:41
3. Unholy Ejaculation 02:23
4. Goat Worship 03:18
5. Outro (Electric Sodomy) 02:10
******************************
Total playing time: 12:22

Extended info
Tape released by Wolfsvuur Records limited to 50 copies (handnumbered).

Tape rip, scans and pictures included.


Technical info

Input File: 2. Horns.mp3
Channels : 2
Sample Rate : 44100
Precision : 16-bit
Duration : 00:03:42.09 = 9794213 samples = 16656.8 CDDA sectors
File Size : 8.88M
Bit Rate : 320k
Sample Encoding: MPEG audio (layer I, II or III)
Comments :
Title=Horns
Artist=Aske
Album=Vuohi
Tracknumber=2
Year=2016
Genre=Black Metal



[ Hidden Text ]
rimfrost
Вот это уже интересно , старый материал был очень зачётен ! спасибо за релиз !
vasiljev_sergej
[ Hidden Text ]
Corpse_Of_The_Christ
This is a "lo-fi" version of our main content. To view the full version with more information, formatting and images, please click here.
Invision Power Board © 2001-2017 Invision Power Services, Inc.