*Artist: Various Artists
*Album: Doommabbestia Webzine - Marijuanaut Vol.III [best of/compilation]
*Year: 2016
*Genre: Sludge/Stoner/Doom Metal
*Country: Italy
*Format: mp3@CBR320kbps
*Size: 255MB

Tracklist:
1. Zippo - After Us 03:43
2. Ornaments - Prometheus 09:01
3. Pater Nembrot - Architeuthis 10:10
4. Arcana 13 - Dread Ritual 07:09
5. Karl Marx Was a Broker - Ego 03:31
6. Varego - Dominion 06:53
7. Otus - Theta Synchrony 11:29
8. Woodwall - Miracle Blood 06:05
9. Messa - Blood 10:25
10. MoRkObOt - KROMOT 03:39
11. Istvan - Kenosis 10:00
12. Sdang! - Astronomica 05:02
13. Marlon Brando - Shelter 06:40
14. tomydeepestego - Tetra 03:37
15. Diana Spencer Grave Explosion - Long Death to the Horizon 12:55
******************************
Total playing time: 1:50:19



Technical info

Input File: Zippo - Marijuanaut Vol.III - 01 After Us.mp3
Channels : 2
Sample Rate : 44100
Precision : 16-bit
Duration : 00:03:43.63 = 9862039 samples = 16772.2 CDDA sectors
File Size : 9.03M
Bit Rate : 323k
Sample Encoding: MPEG audio (layer I, II or III)
Comments :
Title=After Us
Artist=Zippo
Album=Marijuanaut Vol.III
Tracknumber=1
Year=2016



[ Hidden Text ]