*Artist: Themian
*Album: Capra Nigra Gloria
*Year: 2017
*Genre: Black Metal
*Country: Argentina
*Format: mp3@CBR320kbps
*Size: 87MB

Tracklist:
01. Hysteria Diaboli Pater 05:07
02. When The Last Cross Burns 05:52
03. Old Command 05:26
04. Funeral Winter 04:58
05. Return Of Belial 04:27
06. Capra Nigra Gloria 10:04
******************************
Total playing time: 35:54




Technical info

Input File: 02. When The Last Cross Burns.mp3
Channels : 2
Sample Rate : 44100
Precision : 16-bit
Duration : 00:05:52.61 = 15549969 samples = 26445.5 CDDA sectors
File Size : 15.1M
Bit Rate : 342k
Sample Encoding: MPEG audio (layer I, II or III)
Comments :
Title=When The Last Cross Burns
Artist=Themian
Album=CAPRA NIGRA GLORIA
Tracknumber=2
Year=2017



[ Hidden Text ]