*Artist: Diabolus
*Album: Feast [ep]
*Year: 2016
*Genre: Black/Death Metal/Deathcore
*Country: United Kingdom
*Format: mp3@CBR320kbps
*Size: 40MB

Tracklist:
01. Chapter I - A Tortured Beginning 03:36
02. Chapter II - Servant Of The Devil 03:51
03. Chapter III - Demonic Submission 01:35
04. Chapter IV - Wrath Of Apollyon 04:18
05. Chapter V - Cannibal Of Siberia 04:11
******************************
Total playing time: 17:31





Technical info

Input File: 02. Chapter II - Servant Of The Devil.mp3
Channels : 2
Sample Rate : 44100
Precision : 16-bit
Duration : 00:03:51.96 = 10229524 samples = 17397.1 CDDA sectors
File Size : 9.37M
Bit Rate : 323k
Sample Encoding: MPEG audio (layer I, II or III)
Comments :
Title=Chapter II - Servant Of The Devil
Artist=Diabolus
Album=Feast EP
Tracknumber=2
Year=2016



[ Hidden Text ]