*Artist: Thy Coprophagist
*Album: TxC [ep]
*Year: 2017
*Genre: Goregrind/Coprogrind
*Country: Sweden
*Format: mp3@CBR320kbps
*Size: 15MB

Tracklist:
01. Shitfun 01:24
02. Shit-Monster Fun-Time 01:31
03. Tools For Bludgeoning Your Enemies 01:09
04. Shit-Splattered Satisfaction (Waking The Cadaver Cover) (Bonus Track) 02:27
******************************
Total playing time: 6:31




Technical info

Input File: 02. Shit-monster Fun-time.mp3
Channels : 2
Sample Rate : 44100
Precision : 16-bit
Duration : 00:01:31.54 = 4036958 samples = 6865.57 CDDA sectors
File Size : 3.80M
Bit Rate : 332k
Sample Encoding: MPEG audio (layer I, II or III)
Comments :
Title=Shit-monster Fun-time
Artist=Thy Coprophagist
Album=TxC EP
Tracknumber=2
Year=2017



[ Hidden Text ]