Help - Search - Members - Calendar
Full Version: Ende - Emën Etan (2017)
Metal Area - Extreme Music Portal > Releases Area / Релизы > Archive > Low Bitrate Archive (read only)
necroscum


*Artist: Ende
*Album: Emën Etan
*Year: 2017
*Genre: Black Metal
*Country: France
*Format: mp3@CBR320kbps
*Size: 121MB

Tracklist:
01. Among the graves 02:52
02. Cylenchar 05:46
03. When crows flew above Marhn 06:06
04. Das Hexenhaus 06:12
05. The black hen's blood 04:30
06. Insidious portrait 02:17
07. Emën Etan 06:45
08. Camerula 07:04
09. The witch's fire 06:16
10. Under a carpathian yoke (Vlad Tepes) 04:01
******************************
Total playing time: 51:49




Technical info

Input File: 02. Cylenchar.mp3
Channels : 2
Sample Rate : 44100
Precision : 16-bit
Duration : 00:05:47.07 = 15305875 samples = 26030.4 CDDA sectors
File Size : 14.1M
Bit Rate : 326k
Sample Encoding: MPEG audio (layer I, II or III)
Comments :
Title=Cylenchar
Artist=Ende
Album=EmГ«n Etan
Tracknumber=2/10
Year=2017



[ Hidden Text ]
Qliphoth
Очень годный альбом с правильной атмосферой. Даже кавер весьма неплох.
babanguida
Great band and album. 9.gif
vasiljev_sergej
[ Hidden Text ]
babanguida
New album already available in digital
SyncestrA
Рип FLAC-Scene release в 320 k:
[ Hidden Text ]
Вот такие вот спектры (трек тот же, что и в стартовом топике):

babanguida
Still didn't find Goetie Funeste the album released in March 2018
This is a "lo-fi" version of our main content. To view the full version with more information, formatting and images, please click here.
Invision Power Board © 2001-2019 Invision Power Services, Inc.