Help - Search - Members - Calendar
Full Version: Evoke Thy Lords - Lifestories (2017)
Metal Area - Extreme Music Portal > Releases Area / Релизы > Archive
Samaritianin


*Artist: Evoke Thy Lords
*Album: Lifestories
*Year: 2017
*Genre: Doom/Stoner Metal
*Country: Russian Federation
*Format: mp3@CBR320kbps
*Size: 75MB

Tracklist:
1. Regressed 05:31
2. Still Old 07:14
3. Life Is a Trick 07:36
4. Heavy Weather 11:48
5. Stuff It 05:12
******************************
Total playing time: 37:21



Technical info

Input File: 02 - Still Old.mp3
Channels : 2
Sample Rate : 44100
Precision : 16-bit
Duration : 00:07:15.00 = 19183500 samples = 32625 CDDA sectors
File Size : 17.4M
Bit Rate : 320k
Sample Encoding: MPEG audio (layer I, II or III)
Comments :
Title=Still Old
Artist=Evoke Thy Lords
Album=Lifestories
Tracknumber=2
Year=2017
Genre=Doom Metal



[ Hidden Text ]
SatanicPanzer
Новосибирский ансамбль Evoke Thy Lords уже давно полюбился многим любителям неординарной отечественной музыки. Любим данный квартет не только за отличного качества материал, но и за своё стремление трансформировать стиль и звучание из альбома в альбом, при этом не особенно меняя элементы, которые участвуют в создании этого самого материала. Но когда-нибудь любым экспериментам приходит конец, в основом это происходит тогда, когда группа обретает то звучание, которое устраивает и самих музыкантов, а так же и их поклонников и фанатов, пускай и не всех. Кульминация, так сказать!
Вполне возможно, что именно таким альбомом для наших героев станет «Boys! Raise Giant Mushrooms in Your Cellar!», ибо свежий «Lifestories» до него явно не дотягивает по силе и хитовости. Звук на прошлом опусе тоже был пожирнее, что является немаловажным фактором в стиле, в котором трудится данная великолепная четверка. Ни в коем случае не считаю, что альбом этот неудачен, нет. Просто планка поставленная прошлым альбомом, с его потрясным звуком и очень хитовым материалом, оказалась слишком высока и дважды подряд взять её не вышло, однако руки опускать уж точно не стоит.
В качестве подведения итогов я росто скажу, что это 4/5, ни больше, ни меньше! Очень жду местных сейшенов с участием данных ребят. pray.gif pray.gif pray.gif
SyncestrA
320 k (FLAC-Rip)+HQ Scans:
[ Hidden Text ]
This is a "lo-fi" version of our main content. To view the full version with more information, formatting and images, please click here.
Invision Power Board © 2001-2021 Invision Power Services, Inc.