Help - Search - Members - Calendar
Full Version: The Evil - The Evil (2017)
Metal Area - Extreme Music Portal > Releases Area / Релизы > Archive
Hroedmar


*Artist: The Evil
*Album: The Evil
*Year: 2017
*Genre: Stoner/Occult/Doom Metal
*Country: Brazil
*Format: mp3@CBR320kbps
*Size: 112MB

Tracklist:
1. Voices From The Deep (Intro) 00:33
2. About None Guilty 06:35
3. Screams 06:39
4. Sacrifice To The Evil One 10:26
5. Satan II 05:23
6. Silver Razor 10:19
7. The Ancients 06:14
******************************
Total playing time: 46:09



Extended info
Female vocal


Technical info

Input File: 05. Satan II.mp3
Channels : 2
Sample Rate : 44100
Precision : 16-bit
Duration : 00:05:23.25 = 14255149 samples = 24243.5 CDDA sectors
File Size : 13.0M
Bit Rate : 322k
Sample Encoding: MPEG audio (layer I, II or III)
Comments :
Title=Satan II
Artist=The Evil
Album=THE EVIL
Tracknumber=05
Year=2017
Genre=Metal



[ Hidden Text ]
Leshiy666
Отличный же материал, жирный бразильский атмосферный оккультный думец с сочным саундом, и ни одного коммента, не порядок. )))
This is a "lo-fi" version of our main content. To view the full version with more information, formatting and images, please click here.
Invision Power Board © 2001-2020 Invision Power Services, Inc.