Help - Search - Members - Calendar
Full Version: Innermoon - Cloud Walkers (2017)
Metal Area - Extreme Music Portal > Releases Area / Релизы > New Releases
Andrew


*Artist: Innermoon
*Album: Cloud Walkers
*Year: 2017
*Genre: Melodic Death Metal/Metalcore
*Country: France
*Format: mp3@CBR320kbps
*Size: 102MB

Tracklist:
1. Sleeping's End 01:25
2. Harmony 07:50
3. Children of the Moon 05:33
4. From Nothing 01:29
5. Pride 05:44
6. Will to Live 04:29
7. Fallen 08:26
8. The End 03:43
******************************
Total playing time: 38:39




Technical info

Input File: Innermoon - Cloud Walkers - 02 Harmony.mp3
Channels : 2
Sample Rate : 44100
Precision : 16-bit
Duration : 00:07:50.28 = 20739216 samples = 35270.8 CDDA sectors
File Size : 18.9M
Bit Rate : 322k
Sample Encoding: MPEG audio (layer I, II or III)
Comments :
Title=Harmony
Artist=Innermoon
Album=Cloud Walkers
Tracknumber=02
Year=2017



[ Hidden Text ]
DenisKov
Третьесорт, на раз послушать - норм.
This is a "lo-fi" version of our main content. To view the full version with more information, formatting and images, please click here.
Invision Power Board © 2001-2017 Invision Power Services, Inc.