Help - Search - Members - Calendar
Full Version: Mortal Ashes - An Abhorrence (2017)
Metal Area - Extreme Music Portal > Releases Area / Релизы > Archive
aesteticvice


*Artist: Mortal Ashes
*Album: An Abhorrence
*Year: 2017
*Genre: Technical Death Metal
*Country: United States
*Format: mp3@CBR320kbps
*Size: 101MB

Tracklist:
1. Chrysalis 01:17
2. Xenomorphic Mutation 06:25
3. Decapitated By Dog 02:56
4. Pathogen 05:32
5. Ocular Soup 03:55
6. Red Shift 07:22
7. Teuthida 05:25
8. Digested Flesh 04:49
9. Skullfucked By The Herpectic Beast 05:02
******************************
Total playing time: 42:43




Extended info
Trevor Bohlin - Vocals
Joshua Moore - Guitar
Brandon Hedin - Drums
Eric Playstead - Bass


Technical info

Input File: 03 - Decapitated By Dog.mp3
Channels : 2
Sample Rate : 44100
Precision : 16-bit
Duration : 00:02:56.32 = 7775536 samples = 13223.7 CDDA sectors
File Size : 7.20M
Bit Rate : 327k
Sample Encoding: MPEG audio (layer I, II or III)
Comments :
Title=Decapitated By Dog
Artist=Mortal Ashes
Album=An Abhorrence
Tracknumber=3
Year=2017



[ Hidden Text ]
aesteticvice
Прогрессив или мелодик можно добавить по желанию, имеются некоторые вкрапления фьюжена... но голый местами прибруталенный тех дэт преобладает
mirror
[ Hidden Text ]
Язва
Басуха придает нехилой такой объемности и без того добротному материалу, гроул опять же зачетный.
Мне понравился сей
ЦИТАТА
прибруталенный тех дэт
, особенно при прослушивании через колонки.
Не нужно добавлять больше никаких тегов.
9/10
hammer
ЦИТАТА(Язва @ Sep 19 2017, 11:53:03) *
Не нужно добавлять больше никаких тегов.
9/10

+1 Отличный альбом.Барабаны так естественно звучат , аж не привычно как то.
This is a "lo-fi" version of our main content. To view the full version with more information, formatting and images, please click here.
Invision Power Board © 2001-2017 Invision Power Services, Inc.