Help - Search - Members - Calendar
Full Version: Zgard - У Вирі Чорної Снаги (Within The Swirl Of Black Vigor) (2017)
Metal Area - Extreme Music Portal > Releases Area / Релизы > Archive
aesteticvice


*Artist: Zgard
*Album: У Вирі Чорної Снаги (Within The Swirl Of Black Vigor)
*Year: 2017
*Genre: Atmospheric Black/Pagan Metal
*Country: Ukraine
*Format: mp3@CBR320kbps
*Size: 115MB

Tracklist:
1. Занурення в ніч (Dive into the Night) 01:52
2. Забутий (Forgotten) 06:35
3. Сповідь німого (Confession of Voiceless) 07:54
4. Замерзлий простір (Frozen Space) 08:10
5. Там де камні гудуть (Where the Stones Is Drone) 07:26
6. КолоСлово (KoloSlovo) 06:56
7. Холодна ватра (Cold Bonfire) 08:20
8. Колискова зими (Winter Lullaby) 08:02
******************************
Total playing time: 55:15


Preview 2

Extended info
Yaromisl - Guitars, Vocals, Keyboards, Mouth Harp (Говерла)
Dusk - Vocals (Endless Battle, ex-Stryvigor)
Lycan - Drums (Paganland, Atra Mors, ex-Aryadeva, ex-Nahemoth, ex-Nocturnal Amentia, ex-Neksus, ex-Torrence Conscientium)


Technical info

Input File: 02 Forgotten.mp3
Channels : 2
Sample Rate : 44100
Precision : 16-bit
Duration : 00:06:34.80 = 17410768 samples = 29610.1 CDDA sectors
File Size : 15.9M
Bit Rate : 322k
Sample Encoding: MPEG audio (layer I, II or III)
Comments :
Title=Forgotten
Artist=Zgard
Album=Within the Swirl of Black Vigor
Tracknumber=2/8
Year=2017
Genre=9
Discnumber=1/1



[ Hidden Text ]
aesteticvice
mirror
[ Hidden Text ]

judaz
Неудачный альбом. Масса акустики, фолковых элементов и жиденького звука, а драйв весь куда-то испарился.
Moonshtook
Ожидаемо шедевральный альбом!
suseka
Ну, дядька Ярый Мысл могёт, звук отличный, облога огонь, музло огонь!
Сиссионщики не впечатлили: вокал какой-то придушенный, хотя может это особенности записи,
драмминг прописан хорошо, но исполнен абсолютно стандартно, без искры, любой средний любитель так сыграет
russ777
Такссс.... качаем , попозже заслухаем сие.
Релизёру 9.gif
Visitor
ЦИТАТА(suseka @ Oct 27 2017, 09:04:52) *
Сиссионщики не впечатлили

suseka
Visitor, типа того 15.gif , я специально так напейсал 1488.gif 25.gif
Fess
Как и ожидалось, отличный атмосферный альбом. 20.gif
Golodomor
Есть местами интересные моменты, но всё гробит абсолютно неживой пластмассовый звук, будто все инструменты синтезированы 22.gif
Nattfodd
Confession of Voiceless шикарна 20.gif

UPD. Koloslovo не менее крута!
thrashes
Альбом насичений похмурою, містичною карпатською атмосферою, з дуже класними та влучними , як завжди, поєднаннями фолкових вставок живих народних інструментів, які органічно вписуються у наповнення композицій. Таким чином, гурту знову вдається вразити слухачів своїми новими ідеями, розвитком, а також відкриттям нових аспектів потайбіччя.
vosmidesijatye
ЦИТАТА(thrashes @ Feb 19 2018, 02:29:49) *
Альбом насичений похмурою, містичною карпатською атмосферою, з дуже класними, як завжди, поєднаннями фолкових вставок живих народних інструментів, які органічно вписуються у наповнення композицій. Таким чином, гурту знову вдається вразити слухачів своїми новими ідеями, розвитком, а також відкриттям нових аспектів потайбіччя.


Пишите по русски пожалуйста.
Aresson
ЦИТАТА(vosmidesijatye @ 19th February 2018 - 17:11:06) *
Пишите по русски пожалуйста.

а чё ты англоязам типа Бабнгуиды не предъявляешь за это?
vosmidesijatye
ЦИТАТА(Aresson @ Feb 20 2018, 18:46:05) *
а чё ты англоязам типа Бабнгуиды не предъявляешь за это?


Вопрос на миллион. Украинцы могут по русски, а иностранцы нет. bye.gif
Qliphoth
У вири чОрной синагоги?)
Aresson
Я видел как та (тот) же Бабангуида пишет по русски.

Вот в посте Трешаса я 3 слова не понял только, но на общий смысл это никак не повлияло
vosmidesijatye
ЦИТАТА(Aresson @ Feb 21 2018, 14:15:28) *
Я видел как та (тот) же Бабангуида пишет по русски.


Так там муж и жены из Латинской Америки, они попеременно сидят на этом аккаунте и причем только один из них может чутка в русский, поэтому кто сидит под данным ником в конкретный момент времени, поэтому англ в этом плане - универсальный язык общения. 25.gif
randyhermit
Специально перечитал правила, и не нашёл нигде пункта, в котором запрещается общение на отличных от русского и английского языков. Зато в процессе понял, что половину здешних активистов давно уже забанить полагается 1488.gif
mittal
Хороший альбом. Аранжировки и перкуссия на высоте - это главные его достоинства, делающие альбом красивым, атмосферным. Блэковая часть ничем особо не примечательна, ну а вокалиста я бы придушил (судя по его вокалу - это как раз и пытаются сделать). Вообще, за такой воКал полагается уголовная ответственность, ИМХО.
Angeldemon617
mortuusinsomnis06.blogspot.com[ Hidden Text ]
This is a "lo-fi" version of our main content. To view the full version with more information, formatting and images, please click here.
Invision Power Board © 2001-2020 Invision Power Services, Inc.