Help - Search - Members - Calendar
Full Version: Witchery - I Am Legion (2017)
Metal Area - Extreme Music Portal > Releases Area / Релизы > Archive > Low Bitrate Archive (read only)
Necrokilldozer


*Artist: Witchery
*Album: I Am Legion
*Year: 2017
*Genre: Blackened Thrash/Speed Metal
*Country: Sweden
*Format: mp3@CBR320kbps
*Size: 110MB

Tracklist:
1. Legion 01:13
2. True North 04:08
3. Welcome, Night 03:55
4. Of Blackened Wing 04:17
5. Dry Bones 03:59
6. Amun-Ra 03:29
7. Seraphic Terror 03:34
8. A Faustian Deal 03:41
9. An Unexpected Guest 04:05
10. Great Northern Plague 01:49
11. The Alchemist 05:34
12. Ragnarök * 03:48
13. Apex Ghoul * 04:02
******************************
Total playing time: 47:34

Extended info
В Лоу

Line - up:

Sharlee D'Angelo - Bass (Arch Enemy, Spiritual Beggars, The Night Flight Orchestra, Mercyful Fate, ex-Illwill, Black Earth, ex-King Diamond, ex-Facelift, ex-Sinergy, ex-Dismember (live))
Rickard Rimfält - Guitars (ex-Seance, ex-Morgue, ex-Satanic Slaughter)
Patrik Jensen - Guitars (The Haunted, ex-Orchriste, ex-Seance, ex-Brujeria (live), ex-In Flames (live), ex-Satanic Slaughter)
Chris Barkensjö - Drums (Lik, ex-Construcdead, ex-Face Down, ex-Kaamos, ex-The Resistance, ex-Blackshine, ex-Carnal Forge, ex-The Curse, ex-Grave (live), ex-Nightrage (live), ex-Repugnant, ex-Serpent Obscene, ex-Mass Murder Agenda)
Angus Norder - Vocals (Nekrokraft, Siberian (live), ex-Athory Emic)





Technical info

Input File: 04 - Of Blackened Wing.mp3
Channels : 2
Sample Rate : 48000
Precision : 16-bit
Duration : 00:04:15.22 = 12250512 samples ~ 19141.4 CDDA sectors
File Size : 10.2M
Bit Rate : 320k
Sample Encoding: MPEG audio (layer I, II or III)
Comments :
Title=Of Blackened Wing
Artist=Witchery
Album=I Am Legion
Tracknumber=4
Year=2017
Genre=Blackened Thrash / Speed Metal



[ Hidden Text ]
aesteticvice
Оригинал 128kbps/43MB
[ Hidden Text ]
babanguida
This band is less and less interesting. Like Haunted for instance.
This is a "lo-fi" version of our main content. To view the full version with more information, formatting and images, please click here.
Invision Power Board © 2001-2019 Invision Power Services, Inc.