Help - Search - Members - Calendar
Full Version: Forsaken Dreams - Shadows Of The Past (2017)
Metal Area - Extreme Music Portal > Releases Area / Релизы > Archive > Low Bitrate Archive (read only)
komhs


*Artist: Forsaken Dreams
*Album: Shadows Of The Past
*Year: 2017
*Genre: Black Metal
*Country: Greece
*Format: mp3@CBR192kbps
*Size: 81MB

Tracklist:
1.Forsaken dreams (intro) 01:24
2.I'm your creation 04:40
3.Falling 04:30
4.She's the reason 04:31
5.Dark angel 03:48
6.Rage 03:26
7....Silence 06:55
8.Doomed 05:08
9.The end 06:43
10.Final chapter 07:39
11.Forsaken life (outro) 01:59
******************************
Total playing time: 50:43



Technical info

Input File: 1.Forsaken dreams (intro).mp3
Channels : 2
Sample Rate : 44100
Precision : 16-bit
Duration : 00:01:24.64 = 3732624 samples = 6348 CDDA sectors
File Size : 2.37M
Bit Rate : 224k
Sample Encoding: MPEG audio (layer I, II or III)



[ Hidden Text ]
SSWolf88
Странный какой-то блэк. smile3.gif
This is a "lo-fi" version of our main content. To view the full version with more information, formatting and images, please click here.
Invision Power Board © 2001-2019 Invision Power Services, Inc.