Help - Search - Members - Calendar
Full Version: Seer's Fire - Whispers In The Fire (2017)
Metal Area - Extreme Music Portal > Releases Area / Релизы > Archive > Low Bitrate Archive (read only)
demenn


*Artist: Seer's Fire
*Album: Whispers In The Fire
*Year: 2017
*Genre: Epic/Atmospheric Black Metal
*Country: Netherlands
*Format: mp3@CBR128kbps
*Size: 47MB

Tracklist:
01. Whispers In The Fire, Carried By The Wind 02:04
02. Windswept Cold, Winter's Grasp 08:15
03. Beyond The Mountains, The Land Is Burning 08:21
04. Aspect Of The Eagle, Mark Of The Bear 01:54
05. Misty Shores, Where Ice Rests 06:38
06. At An Elven Terrace, Lore Was Spoken 06:00
07. Desolate Roads, Destination's End 03:38
08. Mighty Walls Amongst Forlorn Fields 14:04
******************************
Total playing time: 50:57




Technical info

Input File: 02. Windswept Cold, Winter\'s Grasp.mp3
Channels : 2
Sample Rate : 44100
Precision : 16-bit
Duration : 00:08:15.43 = 21848287 samples = 37157 CDDA sectors
File Size : 7.93M
Bit Rate : 128k
Sample Encoding: MPEG audio (layer I, II or III)
Comments :
Title=Windswept Cold, Winter's Grasp
Artist=Seer's Fire
Album=Whispers In The Fire
Tracknumber=02
Year=2017
Genre=Black Metal



[ Hidden Text ]
zargonath
please 320k
This is a "lo-fi" version of our main content. To view the full version with more information, formatting and images, please click here.
Invision Power Board © 2001-2019 Invision Power Services, Inc.