Help - Search - Members - Calendar
Full Version: Flageladör - Assalto Da Motosserra (2014)
Metal Area - Extreme Music Portal > Releases Area / Релизы > Archive > Low Bitrate Archive (read only)
Samaritianin


*Artist: Flageladör
*Album: Assalto Da Motosserra
*Year: 2014
*Genre: Old School Speed/Thrash Metal
*Country: Brazil
*Format: mp3@CBR320kbps
*Size: 75MB

Tracklist:
1. Assalto da Motosserra 03:26
2. Sob o Machado do Algoz 03:36
3. Crepúsculo dos Deuses 04:18
4. Missão Metal 04:54
5. ...e Eles Retornam 04:27
6. Caminhando para a Morte 03:34
7. Vontade de Potência 02:26
8. Vingança 06:00
******************************
Total playing time: 32:41




Extended info
Armando Exekutor (Vocals, Guitars)
André Necrolust (Bass)
Gabriel "Bitch Hünter" (Drums)



Technical info

Input File: 02 - Sob o Machado do Algoz.mp3
Channels : 2
Sample Rate : 44100
Precision : 16-bit
Duration : 00:03:34.62 = 9464698 samples = 16096.4 CDDA sectors
File Size : 8.68M
Bit Rate : 324k
Sample Encoding: MPEG audio (layer I, II or III)
Comments :
Title=Sob o Machado do Algoz
Artist=Flageladör
Album=Assalto Da Motosserra
Tracknumber=2
Year=2014



[ Hidden Text ]
SSBandera
красава, просто хороводная под елочку banana.gif
Diflock
ЦИТАТА(SSBandera @ Dec 25 2017, 02:09:17) *
красава, просто хороводная под елочку banana.gif

... недооценённая некоторыми crazy.gif
DarkHorde
Шикарный башкотряс! metaler.gif
Steinnorik
О да,хорош подгон !Давно этих типков слушал!
This is a "lo-fi" version of our main content. To view the full version with more information, formatting and images, please click here.
Invision Power Board © 2001-2019 Invision Power Services, Inc.