Help - Search - Members - Calendar
Full Version: Tattoo - Blood Red (1988)
Metal Area - Extreme Music Portal > Releases Area / Релизы > Archive
necroscum


*Artist: Tattoo
*Album: Blood Red
*Year: 1988
*Genre: Heavy Metal
*Country: United States
*Format: mp3@CBR320kbps
*Size: 92MB

Tracklist:
01. Top Of The Rock 03:38
02. Red Light 03:33
03. Gear Head 04:14
04. Nobody Gets Out Alive 03:22
05. Blood Red 02:56
06. Rampage 03:40
07. Ball Breaker 03:27
08. Stand On The Mountain 03:51
09. She's A Rocker 04:53
10. Follow Your Heart 04:05
******************************
Total playing time: 37:39




Extended info
CD-rip with scans


Technical info

Input File: 02. Red Light.mp3
Channels : 2
Sample Rate : 44100
Precision : 16-bit
Duration : 00:03:33.29 = 9405913 samples = 15996.5 CDDA sectors
File Size : 8.53M
Bit Rate : 320k
Sample Encoding: MPEG audio (layer I, II or III)
Comments :
Title=Red Light
Artist=Tattoo
Album=Blood Red
Tracknumber=2/10
Year=1988
Genre=Heavy Metal



[ Hidden Text ]
avkruchinin
Хороший альбом, является переизданием дебютного от 1985 года + одна песня, а вот второй от 1993 года уже так себе, ну собственно, группа после него и распалась.
Morda_Morda
А можно обновить ссылочку? Большое спасибо заранее!
morbidangelo
re-up thanks
Ingvar
88 mb/320 kbps
[ Hidden Text ]
Morda_Morda
ЦИТАТА(Ingvar @ Dec 5 2019, 08:42:12) *
88 mb/320 kbps

Огромнейшее спасибо! 9.gif
This is a "lo-fi" version of our main content. To view the full version with more information, formatting and images, please click here.
Invision Power Board © 2001-2020 Invision Power Services, Inc.