Help - Search - Members - Calendar
Full Version: Antigone's Fate - Insomnia (2018)
Metal Area - Extreme Music Portal > Releases Area / Релизы > Archive > Low Bitrate Archive (read only)
demenn


*Artist: Antigone's Fate
*Album: Insomnia
*Year: 2018
*Genre: Atmospheric Black Metal
*Country: Germany
*Format: mp3@CBR128kbps
*Size: 46MB

Tracklist:
01. In Endlosen Eiswüsten... 11:23
02. Mauern Aus Glas 08:57
03. Insomnia 11:54
04. Monumente Des Verfalls 17:31
******************************
Total playing time: 49:47




Technical info

Input File: 01. In Endlosen Eisw?sten....mp3
Channels : 2
Sample Rate : 44100
Precision : 16-bit
Duration : 00:11:23.76 = 30153904 samples = 51282.1 CDDA sectors
File Size : 10.9M
Bit Rate : 128k
Sample Encoding: MPEG audio (layer I, II or III)
Comments :
Title=In Endlosen Eiswüsten​.​.​.
Artist=Antigone's Fate
Album=Insomnia
Tracknumber=01
Year=2018
Genre=Black Metal



[ Hidden Text ]
Paatddal
О, появился уже. Начало первого трека просто потрясающее smile1.gif
This is a "lo-fi" version of our main content. To view the full version with more information, formatting and images, please click here.
Invision Power Board © 2001-2019 Invision Power Services, Inc.