Help - Search - Members - Calendar
Full Version: Ectoplasma - Cavern Of Foul Unbeings (2018)
Metal Area - Extreme Music Portal > Releases Area / Релизы > Archive > Low Bitrate Archive (read only)
Samaritianin


*Artist: Ectoplasma
*Album: Cavern Of Foul Unbeings
*Year: 2018
*Genre: Old School Death Metal
*Country: Greece
*Format: mp3@CBR128kbps
*Size: 45MB

Tracklist:
1. Amorphous Atrocity (Intro)
2. Entranced in Blood
3. Mortified and Despised
4. Seized in Cimmerian Darkness
5. Cavern of Foul Unbeings
6. Primeval Haunting
7. Reanimated in Trioxin
8. The Unspeakable One
9. GhoulSpawn
10. Disembodied Voice
11. The Immortals (Unleashed cover)
******************************
Total playing time: 48:39



Technical info

Input File: 02. Entranced In Blood.mp3
Channels : 2
Sample Rate : 44100
Precision : 16-bit
Duration : 00:05:02.75 = 13351319 samples = 22706.3 CDDA sectors
File Size : 4.85M
Bit Rate : 128k
Sample Encoding: MPEG audio (layer I, II or III)
Comments :
Title=Entranced In Blood
Artist=Ectoplasma
Album=Cavern Of Foul Unbeings
Tracknumber=2
Year=2018
Genre=Death Metal



[ Hidden Text ]
Samaritianin
[ Hidden Text ]
KVRT

бодренько так banana.gif
This is a "lo-fi" version of our main content. To view the full version with more information, formatting and images, please click here.
Invision Power Board © 2001-2019 Invision Power Services, Inc.