Help - Search - Members - Calendar
Full Version: Shepherds Crook - Black Lake (2018)
Metal Area - Extreme Music Portal > Releases Area / Релизы > Archive
kefka


*Artist: Shepherds Crook
*Album: Black Lake
*Year: 2018
*Genre: Blackened Sludge/Doom Metal
*Country: Norway
*Format: mp3@CBR320kbps
*Size: 93MB

Tracklist:
1.Witch Hammer 09:50
2.Outlaw Speed King 02:59
3.Lizard Tounge Wizard 07:15
4.Dead Sky 06:57
5.Earthworm 04:18
6.Black Lake 08:43
******************************
Total playing time: 40:02



Technical info

Input File: 1. We do not Resist cut.mp3
Channels : 2
Sample Rate : 44100
Precision : 16-bit
Duration : 00:02:01.05 = 5338349 samples = 9078.82 CDDA sectors
File Size : 4.84M
Bit Rate : 320k
Sample Encoding: MPEG audio (layer I, II or III)



[ Hidden Text ]
vosmidesijatye
Кайфовейший релиз. Первый в стиле за год, что пронял. Ориентиры для банды - Graves At Sea, Weedeater, Dopethrone, то есть самый сок. Блэк здесь в вокале, а музло именно эталонный сладж - грузный, мрачный и больной, каким он и должен быть. true_black.gif

Бэндкамп кстати, фри, там можно и флаконом разжиться.
This is a "lo-fi" version of our main content. To view the full version with more information, formatting and images, please click here.
Invision Power Board © 2001-2020 Invision Power Services, Inc.