Help - Search - Members - Calendar
Full Version: Крематорий - Кома (1988)
Metal Area - Extreme Music Portal > Releases Area / Релизы > New Releases > Unformat R:
vosmidesijatye


*Artist: Крематорий
*Album: Кома
*Year: 1988
*Genre: Rock
*Country: Russian Federation
*Format: mp3@CBR320kbps
*Size: 109MB

Tracklist:
01. Introduction (Кома) 0:29
02. Реанимационная Машина 04:38
03. Безобразная Эльза 02:58
04. Африка 03:30
05. Клаустрофобия 05:32
06. Хабибулин 03:32
07. Кондратий 01:25
08. Моя Деревня (Хит-Парад '88) 02:34)
09. Мусорный Ветер 03:06
10. Гимн Мёртвым 03:00
11. Пир Белых Мумий 04:18
12. Гончие Псы 03:33
13. Харе Рама 03:25
14. El Final De La Vida 0:38
15. Feast Of White Mummies [Bonus Track] 04:10
******************************
Total playing time: 46:48



Technical info

Input File: 03 - Безобразная Эльза.mp3
Channels : 2
Sample Rate : 44100
Precision : 16-bit
Duration : 00:02:58.20 = 7858664 samples = 13365.1 CDDA sectors
File Size : 7.13M
Bit Rate : 320k
Sample Encoding: MPEG audio (layer I, II or III)
Comments :
Title=Áåçîáðàçíàÿ Ýëüçà
Artist=Êðåìàòîðèé
Album="Êîìà (Moroz, 1998)"
Tracknumber=03
Year=1988



[ Hidden Text ]
vosmidesijatye
Одна из лучших пластинок нашего рока. pray.gif

@320

[ Hidden Text ]
vosmidesijatye
Хабибулин сегодня звучал громко на улице, было неожиданно headcrab.png
Vastich
Запоминающаяся вещь. Не слушал больше 10 лет, а поди ж всё равно все песни до единой напеть могу, а некоторые целыми куплетами
vosmidesijatye
Я сегодня шел напевая Мусорный Ветер 20.gif
Amadeus
Прекрасно, просто прекрасно
vosmidesijatye
ЦИТАТА(Amadeus @ Feb 11 2018, 12:29:58) *
Прекрасно, просто прекрасно


Подавляющее количество Крематория - да!
vam1972
Творчество Григоряна неднозначно, вплоть до рвоты. Так сказать, московский ответ Аквариуму. Примерно тот же набор инструментов и потуги на умные мысли. Беда в том, что все московские ответы ленинградским группам стали полным провалом. Конкретно тут - постоянная акустика с прибавкой дребезжащей скрипки. В плане текстов гребенщиковскому набору всяких "умностей" и "веселостей" был противопоставлен серый снимок с григоряновской жизни: бухают, трахаются, дохнут, а на улице грязно и отвратительно. Несмотря на то, что здесь 5-7 песен, постоянно участвующих в концертных сетах и всяких The Best, это - тот самый второсортный заменитель, после которого хочется съездить летом на море, почитать Акунина и прочистить уши чем-нибудь типа Anthrax. Во всех перечисленных случаях улучшение настроения и мировосприятия гарантировано.
This is a "lo-fi" version of our main content. To view the full version with more information, formatting and images, please click here.
Invision Power Board © 2001-2020 Invision Power Services, Inc.