Help - Search - Members - Calendar
Full Version: Eïs - Stillstand Und Heimkehr [ep] (2018)
Metal Area - Extreme Music Portal > Releases Area / Релизы > Archive > Low Bitrate Archive (read only)
demenn


*Artist: Eïs
*Album: Stillstand Und Heimkehr [ep]
*Year: 2018
*Genre: Atmospheric Black Metal
*Country: Germany
*Format: mp3@CBR192kbps
*Size: 30MB

Tracklist:
01. An Den Schwarz Besandeten Gestaden 12:59
02. Stillstand Und Heimkehr 08:43
******************************
Total playing time: 21:41




Extended info
в лоу


Technical info

Input File: 01. An Den Schwarz Besandeten Gestaden.mp3
Channels : 2
Sample Rate : 44100
Precision : 16-bit
Duration : 00:12:59.64 = 34382300 samples = 58473.3 CDDA sectors
File Size : 18.7M
Bit Rate : 192k
Sample Encoding: MPEG audio (layer I, II or III)
Comments :
Title=An Den Schwarz Besandeten Gestaden
Artist=EГЇs
Album=Stillstand und Heimkehr
Tracknumber=01
Year=2018
Genre=Black Metal



[ Hidden Text ]
Precaria
Excellent EP. I like the dark approach in these tracks.
This is a "lo-fi" version of our main content. To view the full version with more information, formatting and images, please click here.
Invision Power Board © 2001-2019 Invision Power Services, Inc.