*Artist: Thy Dying Light
*Album: Forgotten By Time [compilation]
*Year: 2018
*Genre: Black Metal
*Country: United Kingdom
*Format: mp3@CBR128kbps
*Size: 39MB

Tracklist:
1.In Northern Mist 06:33
2.Fist of Satan 04:55
3.Carpathian Mountains 03:07
4.Kingdom of Darkness 04:43
5.Thy Dying Light 06:56
6.Plague Rats 06:27
7.Plague Rates Pt. II 04:50
8.Tombs of the Forgotten 06:31
9.Torn Apart by Wolves 05:43
******************************
Total playing time: 49:45



Technical info

Input File: 3 - Kingdom Of Darkness.mp3
Channels : 2
Sample Rate : 44100
Precision : 16-bit
Duration : 00:04:43.35 = 12495867 samples = 21251.5 CDDA sectors
File Size : 4.53M
Bit Rate : 128k
Sample Encoding: MPEG audio (layer I, II or III)



[ Hidden Text ]