Help - Search - Members - Calendar
Full Version: Hiidenhauta - 1695 (2018)
Metal Area - Extreme Music Portal > Releases Area / Релизы > Archive > Low Bitrate Archive (read only)
demenn


*Artist: Hiidenhauta
*Album: 1695
*Year: 2018
*Genre: Melodic Black Metal
*Country: Finland
*Format: mp3@CBR128kbps
*Size: 32MB

Tracklist:
01. Hallan Valta 03:22
02. Äärellä 03:45
03. Kuolimaan Tytär 03:57
04. Musta Leipä 03:28
05. Jumalan Vihan Ruoska 03:04
06. Talvikäräjät 03:53
07. Nälkäkevät 04:22
08. Maan Poveen 07:03
09. Nimettömät 01:36
******************************
Total playing time: 34:33



Technical info

Input File: 01. Hallan Valta.mp3
Channels : 2
Sample Rate : 44100
Precision : 16-bit
Duration : 00:03:22.14 = 8914462 samples = 15160.6 CDDA sectors
File Size : 3.24M
Bit Rate : 128k
Sample Encoding: MPEG audio (layer I, II or III)
Comments :
Title=Hallan Valta
Artist=Hiidenhauta
Album=1695
Tracknumber=01
Year=2018
Genre=Black Metal



[ Hidden Text ]
Razorbladeswaltz
mirror, pls
demenn
ЦИТАТА(Razorbladeswaltz @ Mar 14 2018, 08:34:34) *
mirror, pls

Добавил в теме.
This is a "lo-fi" version of our main content. To view the full version with more information, formatting and images, please click here.
Invision Power Board © 2001-2019 Invision Power Services, Inc.