Help - Search - Members - Calendar
Full Version: Insineratehymn - A Moment In A Vision (2018)
Metal Area - Extreme Music Portal > Releases Area / Релизы > Archive > Low Bitrate Archive (read only)
aesteticvice


*Artist: Insineratehymn
*Album: A Moment In A Vision
*Year: 2018
*Genre: Old School Death Metal
*Country: United States
*Format: mp3@CBR128kbps
*Size: 27MB

Tracklist:
1. Enigmatic Voyage
2. Caliginous Pneuma
3. Seeking Immortality
4. A Moment In A Vision
5. Terminal Existence
6. Putrid Hordes
7. Temple Of Solitude
******************************
Total playing time: 28:36




Extended info
Hugo Gomez (Vocals)
Demitree Rivera (Lead Guitar)
Frank Montero (Rhythm Guitar)
Abraham Garcia (Drums)


Technical info

Input File: 02. Caliginous Pneuma.mp3
Channels : 2
Sample Rate : 44100
Precision : 16-bit
Duration : 00:03:25.51 = 9062771 samples = 15412.9 CDDA sectors
File Size : 3.30M
Bit Rate : 129k
Sample Encoding: MPEG audio (layer I, II or III)
Comments :
Title=Caliginous Pneuma
Artist=Insineratehymn
Album=A Moment In A Vision
Tracknumber=02
Year=2018
Genre=Death Metal



[ Hidden Text ]
aesteticvice
MIRROR
[ Hidden Text ]
judaz
довольно неплохо
Chasm
На дисайд похоже?))
judaz
ЦИТАТА(Chasm @ Mar 28 2018, 08:59:02) *
На дисайд похоже?))

Только названием.
morrom
This is a "lo-fi" version of our main content. To view the full version with more information, formatting and images, please click here.
Invision Power Board © 2001-2019 Invision Power Services, Inc.