Help - Search - Members - Calendar
Full Version: Saltas - Parasites [demo] (2018)
Metal Area - Extreme Music Portal > Releases Area / Релизы > Archive > Low Bitrate Archive (read only)
Necrokilldozer


*Artist: Saltas
*Album: Parasites [demo]
*Year: 2018
*Genre: Death/Doom Metal
*Country: Sweden
*Format: mp3@CBR128kbps
*Size: 37MB

Tracklist:
1. Parasites of the Celestial Flesh 08:51
2. Spirals 08:07
3. Death Spirit Continuum 07:14
4. Inverted Verses Swirls 06:37
5. Interluder 07:46
******************************
Total playing time: 38:35



Extended info
Line - up:

C.J. - Vocals, Drums
N.R. - Vocals, Guitars (Domedag, Heavydeath, Necrocurse, Rapid Terrör, Runemagick, The Funeral Orchestra, ex-Bells of Doom, ex-Masticator, ex-Swordmaster, ex-Deathwitch, ex-Sacramentum, ex-Varulv)


Technical info

Input File: 01. Parasites Of The Celestial Flesh.mp3
Channels : 2
Sample Rate : 44100
Precision : 16-bit
Duration : 00:08:51.28 = 23429404 samples = 39845.9 CDDA sectors
File Size : 8.50M
Bit Rate : 128k
Sample Encoding: MPEG audio (layer I, II or III)
Comments :
Title=Parasites Of The Celestial Flesh
Artist=Saltas
Album=Parasites (Demo)
Tracknumber=1
Year=2018
Genre=Death / Doom Metal



[ Hidden Text ]
abob
Местами конкретно Swallowed напоминает.
This is a "lo-fi" version of our main content. To view the full version with more information, formatting and images, please click here.
Invision Power Board © 2001-2019 Invision Power Services, Inc.