*Artist: Thirst Planet
*Album: The Essence
*Year: 2018
*Genre: Stoner/Doom Metal
*Country: Israel
*Format: mp3@CBR320kbps
*Size: 94MB

Tracklist:
1. Chain 05:24
2. Dry Tank 07:20
3. The Essence 06:40
4. Into the Unknown 02:35
5. Planet of Thirst 05:30
6. The Arrival 07:06
7. Across the Fathomless 00:45
8. Muddy Feet 07:05
******************************
Total playing time: 42:25




Extended info
Leonid Mickoliuk - Bass, Vocals
Anton Dor - Guitars & Synth (Track 7)
Boris Rozenberg - Drums
Guest on this album:
Bar Schmilovich - Samples, Synth & Mixing on tracks 4 & 7.


Technical info

Input File: 01. Chain.mp3
Channels : 2
Sample Rate : 44100
Precision : 16-bit
Duration : 00:05:24.16 = 14295324 samples = 24311.8 CDDA sectors
File Size : 13.2M
Bit Rate : 326k
Sample Encoding: MPEG audio (layer I, II or III)
Comments :
Title=Chain
Artist=Thirst Planet
Album=The Essence
Tracknumber=01
Year=2018
Genre=Doom Metal, Stoner Metal



[ Hidden Text ]