Help - Search - Members - Calendar
Full Version: Lamentaciones - Memorias (2018)
Metal Area - Extreme Music Portal > Releases Area / Релизы > Archive
necroscum


*Artist: Lamentaciones
*Album: Memorias
*Year: 2018
*Genre: Depressive Black Metal
*Country: Colombia
*Format: mp3@CBR320kbps
*Size: 132MB

Tracklist:
01. Memorias (Intro) 04:57
02. La Muerte Me Llama Desde Un Abismo 05:14
03. Recuerdo 05:25
04. Camino Sobre Mi Sombra 05:29
05. Desolación 06:07
06. Dolor 07:29
07. Recuerdos Que Inundan Mi Ser 05:27
08. Trascendencia En Mi Miseria 09:34
09. Lamentaciones 05:56
10. La Esperanza En Una Vida Insípida 01:38
******************************
Total playing time: 57:16



Technical info

Input File: 02. La Muerte Me Llama Desde un Abismo.mp3
Channels : 2
Sample Rate : 44100
Precision : 16-bit
Duration : 00:00:00.31 = 13847 samples = 23.5493 CDDA sectors
File Size : 12.7M
Bit Rate : 324M
Sample Encoding: MPEG audio (layer I, II or III)
Comments :
Title=La Muerte Me Llama Desde un Abismo
Artist=Lamentaciones
Album=Memorias
Tracknumber=2/10
Year=2018-18-20
Discnumber=1/1



[ Hidden Text ]
vovenom
Колумбийский депресняк в теме
Andrew
[ Hidden Text ]
KVRT

SSBandera
ерунда, ни за один трек нельзя зацепиться. да и от депры тут - одна лишь презентация. мелодичный блековый компиляксон всякого среднесортного попурри из конца нулевых-начала десятых.
This is a "lo-fi" version of our main content. To view the full version with more information, formatting and images, please click here.
Invision Power Board © 2001-2019 Invision Power Services, Inc.