Help - Search - Members - Calendar
Full Version: Mephorash - The Third Woe [ep] (2018)
Metal Area - Extreme Music Portal > Releases Area / Релизы > New Releases
Velmi


*Artist: Mephorash
*Album: The Third Woe [ep]
*Year: 2018
*Genre: Black Metal
*Country: Sweden
*Format: mp3@CBR320kbps
*Size: 33MB

Tracklist:
1. 777: The Third Woe 06:41
2. The Odius Gospels 06:31
******************************
Total playing time: 13:12

Extended info
Shadow Records - SHADOW017


Technical info

Input File: 01. 777 - Third Woe.mp3
Channels : 2
Sample Rate : 44100
Precision : 16-bit
Duration : 00:06:41.57 = 17709149 samples = 30117.6 CDDA sectors
File Size : 16.2M
Bit Rate : 323k
Sample Encoding: MPEG audio (layer I, II or III)
Comments :
Title=777: Third Woe
Artist=Mephorash
Album=The Third Woe
Tracknumber=01/02
Year=2018
Genre=Black Metal
Discnumber=1/1



[ Hidden Text ]
RUSP73
Нудная тягомотина, еле дослушал(
Послушал предыдущие...такое впечатление, что полегчал на этой епихе саунд..попсоватее что-ли стал
This is a "lo-fi" version of our main content. To view the full version with more information, formatting and images, please click here.
Invision Power Board © 2001-2018 Invision Power Services, Inc.