Help - Search - Members - Calendar
Full Version: Angel Of Nature - Still Alive (2018)
Metal Area - Extreme Music Portal > Releases Area / Релизы > New Releases
Steinnorik


*Artist: Angel Of Nature
*Album: Still Alive
*Year: 2018
*Genre: Atmospheric Black Metal
*Country: Ukraine
*Format: mp3@VBR220kbps
*Size: 64MB

Tracklist:
01. Autumn Day
02. Leave Behind The Sorrow
03. If Sun Never Comes Up...
04. Keep My Warm
05. Still Alive
06. Spirit Of Mountain Forests
07. The End Of Seasons
******************************
Total playing time: 37:49



Technical info

Input File: 01 Autumn day.mp3
Channels : 2
Sample Rate : 44100
Precision : 16-bit
Duration : 00:06:51.82 = 18161262 samples = 30886.5 CDDA sectors
File Size : 11.8M
Bit Rate : 229k
Sample Encoding: MPEG audio (layer I, II or III)
Comments :
Title=Autumn day
Album=Still alive
Year=2018



[ Hidden Text ]
Steinnorik
https://yadi.sk/d/EyA5ZgfQ3URaET
This is a "lo-fi" version of our main content. To view the full version with more information, formatting and images, please click here.
Invision Power Board © 2001-2018 Invision Power Services, Inc.