*Artist: BleedSkin
*Album: The Rotten One [ep]
*Year: 2018
*Genre: Death Metal
*Country: Belgium
*Format: mp3@CBR320kbps
*Size: 46MB

Tracklist:
1. One Love One Kill 03:27
2. The Rotten One 04:43
3. Unfrozen 03:17
4. The Corpse Taker 04:59
5. BleedSkin 03:36
******************************
Total playing time: 20:02




Extended info
Rémy Adam Bass (2016-present)
Tom Massart Drums (2016-present)
See also: ex-Ardwynn
Céline Mazay Guitars (2016-present)
Logan Dykens Vocals, Guitars (2016-present)


Technical info

Input File: 02 - The Rotten One.mp3
Channels : 2
Sample Rate : 44100
Precision : 16-bit
Duration : 00:04:43.89 = 12519329 samples = 21291.4 CDDA sectors
File Size : 11.4M
Bit Rate : 320k
Sample Encoding: MPEG audio (layer I, II or III)
Comments :
Title=The Rotten One
Artist=BleedSkin
Album=The Rotten One
Tracknumber=2
Year=2018
Genre=Death Metal



[ Hidden Text ]